Welcome to CroWarez.Org
User Login:
English French German Italian Dutch Spanish Portuguese Korean Chinese Simplified Japanese Greek Arabic Russian

DoHost.us - Affordable hosting solutions, $1 shared hosting, $2 cPan= el WHM / Alpha Master Reseller, $5 VPS hosting, $20 Dedicated servers the world servers

Autor Tema: Knjiga o džungli  (Posjeta: 3931 )

0 Članova i 1 Gost pregledava ovu temu.

29-10-2012, 10:50:47
  • Admin
  • *
  • Postova: 4710
  • Country: hr
  • Karma Points: 27090
  • Spol: Muški
  • Metal Will Never Die!


Knjiga o dzungli Rikki Tikki Tavi



 screen-



 info-

Citat:
General
Complete name                    : Knjiga o dzungli Rikki Tikki Tavi.avi
Format                           : AVI
Format/Info                      : Audio Video Interleave
File size                        : 474 MiB
Duration                         : 49mn 25s
Overall bit rate                 : 1 340 Kbps

Video
ID                               : 0
Format                           : MPEG-4 Visual
Format settings, BVOP            : No
Format settings, QPel            : No
Format settings, GMC             : No warppoints
Format settings, Matrix          : Default (H.263)
Codec ID                         : DIVX
Codec ID/Info                    : Project Mayo
Codec ID/Hint                    : DivX 4
Duration                         : 49mn 25s
Bit rate                         : 1 199 Kbps
Width                            : 640 pixels
Height                           : 480 pixels
Display aspect ratio             : 4:3
Frame rate                       : 25.000 fps
Color space                      : YUV
Chroma subsampling               : 4:2:0
Bit depth                        : 8 bits
Scan type                        : Progressive
Compression mode                 : Lossy
Bits/(Pixel*Frame)               : 0.156
Stream size                      : 424 MiB (89%)
Writing library                  : avc2.0.11.1110

Audio
ID                               : 1
Format                           : MPEG Audio
Format version                   : Version 1
Format profile                   : Layer 3
Mode                             : Joint stereo
Mode extension                   : MS Stereo
Codec ID                         : 55
Codec ID/Hint                    : MP3
Duration                         : 49mn 25s
Bit rate mode                    : Constant
Bit rate                         : 128 Kbps
Channel(s)                       : 2 channels
Sampling rate                    : 48.0 KHz
Compression mode                 : Lossy
Stream size                      : 45.2 MiB (10%)
Alignment                        : Aligned on interleaves
Interleave, duration             : 24 ms (0.60 video frame)
Writing library                  : LAME3.96.1

download-

Code:
Samo registrirani korisnici mogu vidjeti skriveni sadrzaj.

Only registered users can see hidden content.
Please click here to Register or Login



Super Moderator Comment Novi link 21.09.
 

29-10-2012, 16:03:33
Odgovori #1
  • Admin
  • *
  • Postova: 4710
  • Country: hr
  • Karma Points: 27090
  • Spol: Muški
  • Metal Will Never Die!


Knjiga o dzungli 2



 screen-



 info-

Citat:
General
Complete name                            : Knjiga o dzungli 2.avi
Format                                   : AVI
Format/Info                              : Audio Video Interleave
File size                                : 698 MiB
Duration                                 : 1h 9mn
Overall bit rate                         : 1 409 Kbps
Movie name                               : JSELP2W1.Title1.DVDRip
Director                                 : nono
Writing application                      : Lavf51.19.0
Original source form/Name                : JSELP2W1

Video
ID                                       : 0
Format                                   : MPEG-4 Visual
Format profile                           : Simple@L3
Format settings, BVOP                    : No
Format settings, QPel                    : No
Format settings, GMC                     : No warppoints
Format settings, Matrix                  : Default (H.263)
Codec ID                                 : XVID
Codec ID/Hint                            : XviD
Duration                                 : 1h 9mn
Bit rate                                 : 1 014 Kbps
Width                                    : 656 pixels
Height                                   : 398 pixels
Display aspect ratio                     : 1.648
Frame rate                               : 25.000 fps
Color space                              : YUV
Chroma subsampling                       : 4:2:0
Bit depth                                : 8 bits
Scan type                                : Progressive
Compression mode                         : Lossy
Bits/(Pixel*Frame)                       : 0.155
Stream size                              : 502 MiB (72%)
Writing library                          : XviD 1.1.2 (UTC 2006-11-01)

Audio
ID                                       : 1
Format                                   : AC-3
Format/Info                              : Audio Coding 3
Mode extension                           : CM (complete main)
Codec ID                                 : 2000
Duration                                 : 1h 9mn
Bit rate mode                            : Constant
Bit rate                                 : 384 Kbps
Channel(s)                               : 6 channels
Channel positions                        : Front: L C R, Side: L R, LFE
Sampling rate                            : 48.0 KHz
Bit depth                                : 16 bits
Compression mode                         : Lossy
Stream size                              : 190 MiB (27%)
Alignment                                : Aligned on interleaves
Interleave, duration                     : 32 ms (0.80 video frame)
Interleave, preload duration             : 32 ms

download-

Code:
Samo registrirani korisnici mogu vidjeti skriveni sadrzaj.

Only registered users can see hidden content.
Please click here to Register or Login


 

18-01-2013, 19:45:10
Odgovori #2
  • System Admin
  • *
  • Postova: 2375
  • Country: cu
  • Karma Points: 194990
  • Spol: Ženski
  • My God my tourniquet, return to me salvation..
 
info-

Knjiga o dzungli 2 (2003) DVDRip Xvid



Code:
Samo registrirani korisnici mogu vidjeti skriveni sadrzaj.

Only registered users can see hidden content.
Please click here to Register or Login





 screen-






 download-

Code:
Samo registrirani korisnici mogu vidjeti skriveni sadrzaj.

Only registered users can see hidden content.
Please click here to Register or Login


Give me a reason to believe that you're gone
I see your shadow so I know they're all wrong
Moonlight on the soft brown earth
It leads me to where you lay
They took you away from me but now I'm taking you home


Bella
 

04-05-2013, 12:19:57
Odgovori #3
  • Uploader
  • *
  • Postova: 518
  • Country: cs
  • Karma Points: 26536
  • Spol: Muški
  • Patriot
The Jungle book (1967)



 info-
DVD-Rip | avi | SR | 703 MB | 01:15:22 | 608x432
Citat:
Film Knjiga o Džungli topla je i zabavna priča o dečaku Mogliju koga, kao bebu, pronalazi o odgaja porodica vukova. Odrastajući sa mladuncima vuka duboko u opasnim džunglama Indije, Mogli izrasta u dečaka spremnog da se uhvati u koštac sa svim opasnostima koje vrebaju u džungli. Njegov svet ispunjen je brojnim lepim trenucima koje deli sa ostalim životinjama. Ipak, iz tame ga od samog početka vreba i njegov smrtni neprijatelj sir Kan, krvoločni tigar ubica. Međutim, jednog dana Moglijev svet iz korena će se promeniti. Sve opasnosti koje vrebaju i sve što je naučio od svoje porodice vukova nisu mogle da ga pripreme za susret sa bićem koje nikada raije nije sreo sa čovekom.

Code:
Samo registrirani korisnici mogu vidjeti skriveni sadrzaj.

Only registered users can see hidden content.
Please click here to Register or Login



 download-
Code:
Samo registrirani korisnici mogu vidjeti skriveni sadrzaj.

Only registered users can see hidden content.
Please click here to Register or Login




 password-
Code:
Samo registrirani korisnici mogu vidjeti skriveni sadrzaj.

Only registered users can see hidden content.
Please click here to Register or Login




 screen-


Kako da izvršite download i da raspakujete crtani film, možete pronaći OVDE
 

04-05-2013, 12:23:15
Odgovori #4
  • Uploader
  • *
  • Postova: 518
  • Country: cs
  • Karma Points: 26536
  • Spol: Muški
  • Patriot
Knjiga o Džungli 2 (2003)



 info-
DVD-Rip | avi | HR | 698 MB | 01:09:16 | 656x398
Citat:
Napušteno ljudsko mladunče, Mogli, koga su u šumi odgajili vukovi sada se susreće sa novim izazovima.
Odrastajući sa životinjama duboko u opasnim džunglama Indije, Mogli izrasta u dečaka spremnog da se uhvati u koštac sa svim opasnostima, međutim, svet kojim vladaju ljudi nimalo ne liči na onaj kakav on poznaje u džungli. Kada je napunio 10 godina Mogli se otisnuo u selo među ljude, iako se naizgled brzo snašao ponovo zaželi da se vrati u šumu. Među stare prijatelje vraća se sa treniranim majmunom iz sela, međutim, u džungli počinju da ga tretiraju kao izgnanika. Otežavajuću situaciju za Moglija predstavlja i okrutni vlasnik cirkusa koji besomučno pokušava da ga pronađe….

Code:
Samo registrirani korisnici mogu vidjeti skriveni sadrzaj.

Only registered users can see hidden content.
Please click here to Register or Login



 download-
Code:
Samo registrirani korisnici mogu vidjeti skriveni sadrzaj.

Only registered users can see hidden content.
Please click here to Register or Login




 password-
Code:
Samo registrirani korisnici mogu vidjeti skriveni sadrzaj.

Only registered users can see hidden content.
Please click here to Register or Login




 screen-


Kako da izvršite download i da raspakujete crtani film, možete pronaći OVDE
 

04-05-2013, 12:25:34
Odgovori #5
  • Uploader
  • *
  • Postova: 518
  • Country: cs
  • Karma Points: 26536
  • Spol: Muški
  • Patriot
Knjiga o Džungli - Riki-Tiki-Tavijeva Priča (2006)



 info-
DVD-Rip | avi | SR | 473 MB | 00:49:22 | 768x576
Citat:
Film KNJIGA O DŽUNGLI topla je i zabavna priča o dečaku Mogliju koga, kao bebu, pronalazi o odgaja porodica vukova. Odrastajući sa mladuncima vuka duboko u opasnim džunglama Indije, Mogli izrasta u dečaka spremnog da se uhvati u koštac sa svim opasnostima koje vrebaju u džungli. Njegov svet ispunjen je brojnim lepim trenucima koje deli sa ostalim životinjama. Ipak, iz tame ga od samog početka vreba i njegov smrtni neprijatelj – Šir Kan, krvoločni tigar ubica. Međutim, jednog dana Moglijev svet iz korena će se promeniti. Sve opasnosti koje vrebaju i sve što je naučio od svoje „porodice“ vukova nisu mogle da ga pripreme za susret sa bićem koje nikada raije nije sreo – čovekom.

Code:
Samo registrirani korisnici mogu vidjeti skriveni sadrzaj.

Only registered users can see hidden content.
Please click here to Register or Login



 download-
Code:
Samo registrirani korisnici mogu vidjeti skriveni sadrzaj.

Only registered users can see hidden content.
Please click here to Register or Login




 password-
Code:
Samo registrirani korisnici mogu vidjeti skriveni sadrzaj.

Only registered users can see hidden content.
Please click here to Register or Login




 screen-


Kako da izvršite download i da raspakujete crtani film, možete pronaći OVDE
 


 


Svaki korisnik ovog sajta odgovoran je za sadržaj poruke koju objavi na sajtu. Sajt se odriče svake odgovornosti za njihov sadržaj. Postavljanjem vaše poruke ili vašeg autorskog djela suglasni ste da ovaj sajt postaje distributer vašeg djela i odričete se mogućnosti njegovog povlačenja ili brisanja bez suglasnosti uprave sajta. Distribucija sadržaja sa ovog sajta je dozvoljena samo u nekomercijalne svrhe, uz obaveznu napomenu da je sadržaj preuzet sa ovog sajta i uz obavezno navođenje adrese CroWarez.org. Kako je sajt ovih dimenzija nemoguće u potpunosti kontrolirati ukoliko primjetite materijal nad kojim Vi ili neko drugi već ima autorska prava, odmah nam se obratite i materijal će biti uklonjen. Za sve ostale vidove distribucije obavezni ste da prethodno zatražite odobrenje od vlasnika CroWarez.org sajta. Ukoliko želite kontaktirati s nama pošaljite nam poruka na mail:
[email protected]

Optimized for: Firefox:: Chrome :: 1024x768 pixels (minimal screen resolution)
Copyright 2009 - 2014 Www.CroWarez.Org

Bosna United Serije Online The Pet Planet SMFSimple
Cro Warez Odblokiraj.me Besplatan Download Free