Welcome to CroWarez.Org
User Login:
English French German Italian Dutch Spanish Portuguese Korean Chinese Simplified Japanese Greek Arabic Russian

DoHost.us - Affordable hosting solutions, $1 shared hosting, $2 cPan= el WHM / Alpha Master Reseller, $5 VPS hosting, $20 Dedicated servers the world servers

Autor Tema: Uskrsnji zec dolazi u grad (2006)  (Posjeta: 1239 )

0 Članova i 1 Gost pregledava ovu temu.

14-03-2013, 19:51:56
  • Admin
  • *
  • Postova: 4570
  • Country: hr
  • Karma Points: 25834
  • Spol: Muški
  • Metal Will Never Die!




 screen-



 info-

Citat:
General
Complete name                            :Uskrsnji zec dolazi u grad (2006).avi
Format                                   : AVI
Format/Info                              : Audio Video Interleave
File size                                : 500 MiB
Duration                                 : 47mn 56s
Overall bit rate mode                    : Variable
Overall bit rate                         : 1 458 Kbps
Writing application                      : VirtualDubMod 1.5.4.1 (build 2178/release)
Writing library                          : VirtualDubMod build 2178/release

Video
ID                                       : 0
Format                                   : MPEG-4 Visual
Format profile                           : Advanced Simple@L5
Format settings, BVOP                    : 1
Format settings, QPel                    : No
Format settings, GMC                     : No warppoints
Format settings, Matrix                  : Custom
Codec ID                                 : XVID
Codec ID/Hint                            : XviD
Duration                                 : 47mn 56s
Bit rate                                 : 1 359 Kbps
Width                                    : 576 pixels
Height                                   : 432 pixels
Display aspect ratio                     : 4:3
Frame rate                               : 25.000 fps
Color space                              : YUV
Chroma subsampling                       : 4:2:0
Bit depth                                : 8 bits
Scan type                                : Progressive
Compression mode                         : Lossy
Bits/(Pixel*Frame)                       : 0.218
Stream size                              : 466 MiB (93%)
Writing library                          : XviD 1.2.1 (UTC 2008-12-04)

Audio
ID                                       : 1
Format                                   : MPEG Audio
Format version                           : Version 1
Format profile                           : Layer 3
Mode                                     : Joint stereo
Mode extension                           : MS Stereo
Codec ID                                 : 55
Codec ID/Hint                            : MP3
Duration                                 : 47mn 56s
Bit rate mode                            : Variable
Bit rate                                 : 86.0 Kbps
Nominal bit rate                         : 128 Kbps
Channel(s)                               : 2 channels
Sampling rate                            : 48.0 KHz
Compression mode                         : Lossy
Stream size                              : 29.5 MiB (6%)
Alignment                                : Aligned on interleaves
Interleave, duration                     : 24 ms (0.60 video frame)
Interleave, preload duration             : 214 ms
Writing library                          : LAME3.98r
Encoding settings                        : -m j -V 4 -q 2 -lowpass 17 --abr 128
Language                                 : Hrvatski

download-

Code:
Samo registrirani korisnici mogu vidjeti skriveni sadrzaj.

Only registered users can see hidden content.
Please click here to Register or Login



Administrator Comment Obnovljen link 08.11.
 

07-11-2013, 17:36:41
Odgovori #1
  • Netko
  • *
  • Postova: 5
  • Karma Points: 18
links are dead....
 

12-11-2013, 16:03:13
Odgovori #2
  • Netko
  • *
  • Postova: 1
  • Karma Points: 2
Radi link, Hvala puno ok-
 


 


Svaki korisnik ovog sajta odgovoran je za sadržaj poruke koju objavi na sajtu. Sajt se odriče svake odgovornosti za njihov sadržaj. Postavljanjem vaše poruke ili vašeg autorskog djela suglasni ste da ovaj sajt postaje distributer vašeg djela i odričete se mogućnosti njegovog povlačenja ili brisanja bez suglasnosti uprave sajta. Distribucija sadržaja sa ovog sajta je dozvoljena samo u nekomercijalne svrhe, uz obaveznu napomenu da je sadržaj preuzet sa ovog sajta i uz obavezno navođenje adrese CroWarez.org. Kako je sajt ovih dimenzija nemoguće u potpunosti kontrolirati ukoliko primjetite materijal nad kojim Vi ili neko drugi već ima autorska prava, odmah nam se obratite i materijal će biti uklonjen. Za sve ostale vidove distribucije obavezni ste da prethodno zatražite odobrenje od vlasnika CroWarez.org sajta. Ukoliko želite kontaktirati s nama pošaljite nam poruka na mail:
[email protected]

Optimized for: Firefox:: Chrome :: 1024x768 pixels (minimal screen resolution)
Copyright 2009 - 2014 Www.CroWarez.Org

Bosna United Serije Online The Pet Planet SMFSimple
Cro Warez Odblokiraj.me Besplatan Download Free